Skip to main content

Dawes Live at The Independent on 2010-11-20

Audio Preview

etree
Dawes Live at The Independent on 2010-11-20

by Dawes



01 My Girl To Me
02 When You Call My Name
03 That Western Skyline
04 If I Wanted Someone
05 God Rest My Soul
06 My Way Back Home
07 Bedside Manner
08 How Far We've Come
09 Love Is All I Am
10 Fire Away
11 Peace In The Valley
12 When My Time Comes

encore:
13 A Little Bit Of Everything
14 If You Let Me Be Your Anchor
15 I've Got A Feeling (It's Gonna Be Alright)


Collection Dawes
Band/Artist Dawes
Venue The Independent
Location San Francisco CA USA

Source [SBD] + [AK40 (DIN, clamped to balcony, ROC) > LC3 > KM100] >> R-44 (Oade CM) >> WAV @ 24bit/44.1KHz
Lineage Adobe Audition 3.0 >> SBD/AK40 mix >> iZotope Ozone 4 >> multiband exciter >> loudness maximizer >> stereo image >> dither to 16 bit (MBIT+)
Taped by dmonkey
Transferred by dmonkey

Notes

** NOT FOR SALE!! **

Recorded with permission. Please support the band and keep the music alive.

http://dawestheband.blogspot.com/
http://www.archive.org/details/Dawes

SHNTOOL:
length expanded size cdr WAVE problems fmt ratio filename
6:16.15 66361724 B --- -- ---xx flac 0.5890 dawes_2010-11-20_mtx_t01.flac
4:49.07 50996108 B --- -- ---xx flac 0.5749 dawes_2010-11-20_mtx_t02.flac
6:34.51 69621596 B --- -- ---xx flac 0.5421 dawes_2010-11-20_mtx_t03.flac
4:23.17 46433228 B --- -- ---xx flac 0.5796 dawes_2010-11-20_mtx_t04.flac
5:09.15 54542924 B --- -- ---xx flac 0.5911 dawes_2010-11-20_mtx_t05.flac
6:40.45 70665884 B --- -- ---xx flac 0.5355 dawes_2010-11-20_mtx_t06.flac
4:15.16 45019676 B --- -- ---xx flac 0.5480 dawes_2010-11-20_mtx_t07.flac
3:45.26 39751196 B --- -- ---xx flac 0.5702 dawes_2010-11-20_mtx_t08.flac
6:08.48 65028140 B --- -- ---xx flac 0.5049 dawes_2010-11-20_mtx_t09.flac
6:50.21 72373436 B --- -- ---xx flac 0.5504 dawes_2010-11-20_mtx_t10.flac
8:57.48 94839740 B --- -- ---xx flac 0.5419 dawes_2010-11-20_mtx_t11.flac
6:36.44 69957932 B --- -- ---xx flac 0.5464 dawes_2010-11-20_mtx_t12.flac
5:42.37 60415868 B --- -- ---xx flac 0.5338 dawes_2010-11-20_mtx_t13.flac
3:59.03 42166700 B --- -- ---xx flac 0.5506 dawes_2010-11-20_mtx_t14.flac
4:47.08 50646400 B -b- -- ---xx flac 0.5241 dawes_2010-11-20_mtx_t15.flac
84:55.26 898820552 B 0.5505 (15 files)

comment
Reviews

Reviewer: jswaney - favoritefavoritefavorite - June 10, 2011
Subject: Base!!!
Sounds great on my small speakers. Not on Klipsch. Base could come down about 5db.

Thanks though! I will put up my Dawes recordings soon too.
Reviewer: HeyScotE - favoritefavoritefavoritefavoritefavorite - January 22, 2011
Subject: Thanks for another great show
Sounds fantastic - nice punch.

A great birthday present for my getting old...if ya gotta get old, you might as well let the yougsters keep you happy....
Reviewer: morst - favoritefavoritefavoritefavoritefavorite - December 14, 2010
Subject: Dawes.
Yeesh, I love this band. The music just keeps developing complexity, little by little. Kasnoff's keyboards are really good in the mix here, and Taylor's guitar is super clear. Seems like his voice is a bit rough in places, but really more noticeable when he is speaking. Nearing the end of a long tour, so close to home they could probably taste it.

Nice work DMonkey! 5*****
DOWNLOAD OPTIONS
In Collection
Dawes
In Collection
Live Music Archive
Uploaded by
morst
on 12/13/2010
Views
2,932
Favorites
4
Reviews
3
SIMILAR ITEMS (based on metadata)
eye
Title
Date Archived
Creator
Dawes
by Dawes
etree
eye 7,420
favorite 3
comment 1
favoritefavoritefavoritefavorite ( 1 reviews )
Source: SBD + AUD mix
Dawes
etree
eye 2,925
favorite 3
comment 1
favoritefavoritefavoritefavoritefavorite ( 1 reviews )
Source: Mackie SBD tape outs > Sony PCM-M1 > DAT @16/48 Neumann KM140's > Beyer MV100 > M-Audio Microtrack II > WAV @24/48
Dawes
by Dawes
etree
eye 1,685
favorite 1
comment 1
favoritefavoritefavoritefavorite ( 1 reviews )
Source: [AK40 (ORTF, ~7' high, back of room @ soundboard) >> LC3 >> KM100] + [digital SBD feed] >> R-44 (Oade CM) >> WAV (24bit/48KHz)
Dawes
by Dawes
etree
eye 4,254
favorite 4
comment 4
favoritefavoritefavoritefavorite ( 4 reviews )
Source: KM140’s > MV100 > PCM-M10 > WAV@24/48 + Digidesign Venue > PCM-M10 > WAV@24/48
Dawes
etree
eye 1,276
favorite 1
comment 0
Source: Neumann KM140's (ORTF with windscreens on stand, right side, back of main floor) > Beyer MV100 > M-Audio Microtrack II > WAV @24-bit/48kHz + Soundcraft Spirit 8 SBD > Zoom H2 > WAV @24-bit/48kHz
Dawes
etree
eye 380
favorite 1
comment 0
Source: Neumann KM140's (ORTF with windscreens on stand, right side, back of main floor) > Beyer MV100 > M-Audio Microtrack II > WAV @24-bit/48kHz + Soundcraft Spirit 8 SBD > Zoom H2 > WAV @24-bit/48kHz
Dawes
by Dawes
etree
eye 564
favorite 1
comment 0
Source: Allen & Heath GL3300 SBD > Sony PCM-M1 > DAT + Neumann KM140’s > MV100 > -11dB attenuator cable > H2 (mic pads set at -10dB) > WAV @24-bit/48kHz (clamped on ctr post, ~8' high)
Dawes
by Dawes
etree
eye 738
favorite 1
comment 0
Source: [SBD] + [AK40 (ORTF, ~7' high @ SBD) > LC3 > KM100 > Aerco MP-2] >> R-44 (Oade CM) >> WAV @ 24bit/44.1KHz
Dawes
by Dawes
etree
eye 697
favorite 1
comment 0
Source: Mackie SBD > Sony PCM-M1 > DAT + Neumann KM140’s > MV100 > -11dB attenuator cable > H2 (mic pads set at -10dB) > WAV @24-bit/48kHz (ORTF on stand, rt of center, 9' high)
Dawes
etree
eye 361
favorite 0
comment 0
Source: Mackie SBD tape outs > Sony PCM-M1 > DAT @16/48 Neumann KM140's > Beyer MV100 > M-Audio Microtrack II > WAV @24/48